none.gif

水一水哎呀

GF  2019-09-10 16:10
(水一水哎呀)

1000SP每部求絵色千佳SERO-0028 SERO-0037无码流出,另结。


1000SP每部,求絵色千佳 SERO-0028 SERO-0037 无码流出,开贴另结。

要5.2GB的版本,目测应该是720p  wmv格式。色花堂的版本就不要发了。
此帖悬赏结束
最佳答案: 20 SP币
最佳答案获得者: 6d2fe924

1079467.jpg

hellolittle

make
最佳答案奖励: (+20) SP币

none.gif

skywalker

此帖售价 10 SP币,已有 17 人购买
若发现会员采用欺骗的方法获取财富,请立刻举报,我们会对会员处以2-N倍的罚金,严重者封掉ID!
热心助人奖励: (+1) SP币

aadd88a1551f7.gif

笑红尘

热心助人奖励: (+1) SP币

none.gif

5474aa63

mp4

此帖售价 2 SP币,已有 32 人购买
若发现会员采用欺骗的方法获取财富,请立刻举报,我们会对会员处以2-N倍的罚金,严重者封掉ID!
热心助人奖励: (+1) SP币

none.gif

c198ef80

此帖售价 1 SP币,已有 48 人购买
若发现会员采用欺骗的方法获取财富,请立刻举报,我们会对会员处以2-N倍的罚金,严重者封掉ID!
热心助人奖励: (+1) SP币

1040408.jpg

19e59b5d

B6F  2019-09-11 02:35
(道通天地有形外 思入风云变态中)
三部都是色华堂的~
热心助人奖励: (+1) SP币

99097.jpg

Rem丶

B7F  2019-09-11 17:34
(一直很低调)
mark
热心助人奖励: (+1) SP币

150261.gif

KsEternal

还有个047啊
热心助人奖励: (+1) SP币

none.gif

淫蒂的迷小妹

热心助人奖励: (+1) SP币

874581.jpg

今天是一只SB

lz找的是不是以下两部?

FC2PPV-1039683  对应SERO-0028
FC2PPV-1039678  对应SERO-0037

还有一部
FC2PPV-1039838 不知道对应啥

着三部我可以下载到4.86GB(1080P),4.85GB(1080P),4.99GB(720P)的版本,均为mp4格式。有需要我可以帮忙下载转存度盘
热心助人奖励: (+1) SP币

none.gif

bbf0064f

帮顶
热心助人奖励: (+1) SP币

none.gif

水一水哎呀

B12F  2019-09-10 18:56
(水一水哎呀)

回 2楼(skywalker) 的帖子

兄弟,审题呀。
kissjav的在线播放链接就别放上来了。。。

none.gif

水一水哎呀

B13F  2019-09-10 21:12
(水一水哎呀)

回 5楼(5474aa63) 的帖子

兄弟,审题哦。

明确说了色花堂的版本不要。

none.gif

水一水哎呀

B14F  2019-09-11 21:05
(水一水哎呀)

回 7楼(c198ef80) 的帖子

谢谢,但不是我所求的。

none.gif

水一水哎呀

B15F  2019-09-11 21:08
(水一水哎呀)
我所求的资源为:
SERO-0028  5.19GB  wmv格式  分辨率1280×720
SERO-0037  5.17GB  wmv格式  分辨率1280×720

none.gif

c198ef80

回 11楼(水一水哎呀) 的帖子

SERO-0037  这个为 wmv格式 1280×720的

none.gif

水一水哎呀

B17F  2019-09-12 21:48
(水一水哎呀)

回 12楼(c198ef80) 的帖子

你好好看看哦,你那是SERO-0047

SERO-0028 SERO-0037目前我找到的种子只能下载到31%。。。。

none.gif

水一水哎呀

B18F  2019-09-12 21:49
(水一水哎呀)
SERO-0028 SERO-0037 虽然我只下载了31% 但预览了一下,确实无码。

信息我已经贴出来了:
SERO-0028  5.19GB  wmv格式  分辨率1280×720
SERO-0037  5.17GB  wmv格式  分辨率1280×720

none.gif

水一水哎呀

B19F  2019-09-24 13:56
(水一水哎呀)
看来是凉凉了

none.gif

水一水哎呀

B20F  2019-09-24 19:15
(水一水哎呀)

回 18楼(今天是一只SB) 的帖子

感谢热心帮助,但我不需要。


你说的是色花堂的版本。SERO-0037 这部,色花堂1080p约5GB的大小的视频,其清晰度还不如另一站点1.7GB的720p的无水印版本。

色花堂的资源看似良心(只有短暂的水印且文件体积大),但压制的不好。我逐帧对比过很多与其他站点(比如桃花族)的相同的资源,在较大文件体积的情况下清晰度还不如别家。

而且,色花堂的大部分加水印视频用“PotPlayer”调用“CyberLink Video Decoder”解码帧率不正常(29.97帧的视频按23帧播放)。至于为什么我非得用“CyberLink Video Decoder”解码播放,说来话长,不宜多说。

色花堂的资源对我来说就是从不保存到硬盘,只是用来“115离线检阅整体质量然后决定是找别家还是去购买原版”。

874581.jpg

今天是一只SB

回 19楼(水一水哎呀) 的帖子

我下载下来看了一下,不是色花堂的,开头和中间都没有任何论坛的任何广告或者水印。
我也不是很懂压制和解码,复制了其中一个的文件信息

General
Complete name                  : 【我删掉了目录】FC2PPV-1039678 絵色千佳 无码流出 2.mp4
Format                         : MPEG-4
Format profile                 : Base Media
Codec ID                       : isom (isom/iso2/avc1/mp41)
File size                      : 4.85 GiB
Duration                       : 1 h 59 min
Overall bit rate mode          : Constant
Overall bit rate               : 5 820 kb/s
Writing application            : Lavf58.20.100

Video
ID                             : 1
Format                         : AVC
Format/Info                    : Advanced Video Codec
Format profile                 : [email protected]
Format settings                : CABAC / 4 Ref Frames
Format settings, CABAC         : Yes
Format settings, ReFrames      : 4 frames
Format settings, GOP           : M=4, N=50
Codec ID                       : avc1
Codec ID/Info                  : Advanced Video Coding
Duration                       : 1 h 59 min
Bit rate mode                  : Constant
Bit rate                       : 5 760 kb/s
Width                          : 1 920 pixels
Height                         : 1 080 pixels
Display aspect ratio           : 16:9
Frame rate mode                : Constant
Frame rate                     : 29.970 (29970/1000) FPS
Color space                    : YUV
Chroma subsampling             : 4:2:0
Bit depth                      : 8 bits
Scan type                      : Progressive
Bits/(Pixel*Frame)             : 0.093
Stream size                    : 4.80 GiB (99%)
Menus                          : 3
Codec configuration box        : avcC

Audio
ID                             : 2
Format                         : AAC LC SBR
Format/Info                    : Advanced Audio Codec Low Complexity with Spectral Band Replication
Commercial name                : HE-AAC
Format settings                : Explicit
Codec ID                       : mp4a-40-2
Duration                       : 1 h 59 min
Duration_LastFrame             : 1 ms
Bit rate mode                  : Constant
Bit rate                       : 54.1 kb/s
Channel(s)                     : 2 channels
Channel layout                 : L R
Sampling rate                  : 44.1 kHz
Frame rate                     : 21.533 FPS (2048 SPF)
Compression mode               : Lossy
Stream size                    : 46.2 MiB (1%)
Default                        : Yes
Alternate group                : 1
Menus                          : 3

Menu #1
ID                             : 3
Codec ID                       : text
Duration                       : 1 h 59 min
Language                       : English
Menu For                       : 1,2

Menu #2


可以的话我可以先压缩一个百度云,lz拿去看看?

none.gif

水一水哎呀

B22F  2019-09-25 21:25
(水一水哎呀)

回 20楼(今天是一只SB) 的帖子

麻烦发来让我确认一下。

874581.jpg

今天是一只SB

试一试
此帖售价 0 SP币,已有 49 人购买
若发现会员采用欺骗的方法获取财富,请立刻举报,我们会对会员处以2-N倍的罚金,严重者封掉ID!

874581.jpg

今天是一只SB

忘记说解压密码了,密码是:
Java_Developer_Nanodegree

1093160.jpg

4226fe4b

请问这些在哪找的

none.gif

水一水哎呀

B26F  2019-09-29 05:03
(水一水哎呀)

回 23楼(今天是一只SB) 的帖子

你发的这个就是色花堂版本,把带色花水印的片头剪切掉了。
完整版是1:59:22,剪切掉了前7秒。

874581.jpg

今天是一只SB

回 26楼(水一水哎呀) 的帖子

行吧 我也不知道,网上人家放出来就是这样子的,没想到还有这种操作